#TITLE:Payon;
#SUBTITLE:SoundTemp;
#ARTIST:Ragnarok;
#TITLETRANSLIT:;
#SUBTITLETRANSLIT:;
#ARTISTTRANSLIT:;
#CREDIT:;
#BANNER:Payon-BN.JPG;
#BACKGROUND:Payon-BG.JPG;
#LYRICSPATH:;
#CDTITLE:cdtitle.png;
#MUSIC:payon.mp3;
#OFFSET:-3.903;
#SAMPLESTART:80.050;
#SAMPLELENGTH:12.000;
#SELECTABLE:YES;
#BPMS:0.000=90.000;
#STOPS:;
#BGCHANGES:;
// cache tags:
#FIRSTBEAT:0.000;
#LASTBEAT:202.875;
#SONGFILENAME:Songs/Music V.I.P ^_^/Payon - Ragnarok/Payon.sm;
#HASMUSIC:1;
#HASBANNER:1;
#MUSICLENGTH:143.234;
// end cache tags

//---------------dance-single - ----------------
#NOTES:
     dance-single:
     :
     Challenge:
     8:
     0.709,0.761,0.209,1.000,0.206,341.000,30.000,340.000,0.000,10.000:
1001
0000
0000
0000
0110
0000
0000
0000
0000
0000
0000
0000
0110
0000
0000
0000
0000
0000
0000
0000
0110
0000
0000
0000
1000
0001
1000
0001
2000
0000
0000
0000
,
0000
0000
0200
0000
3000
0000
0000
0000
0300
0000
0020
0030
0002
0003
0200
0300
,
0000
0000
0000
0000
0020
0030
2000
3000
0200
0300
0020
0030
0000
0000
0000
0000
,
2000
0000
3000
0000
0001
0010
0001
0010
0001
0000
0010
0000
0001
0000
0010
0000
0100
0000
0000
0000
1000
0000
0000
0000
2020
0000
3030
0000
2020
0000
3030
0000
,
1000
1000
1000
0000
0000
0000
0000
0000
2000
3200
0320
0030
0200
0320
0032
0003
,
2000
3000
2000
3000
0022
0033
0220
0330
2002
3003
2200
3300
2000
3000
0200
0300
,
2000
3000
0002
0003
0020
0030
2000
3000
2000
3000
0020
0030
0010
0100
0010
0000
,
0000
0000
0220
0330
0200
0300
0020
0030
2000
3000
0200
0300
0000
0000
0002
0003
,
1000
0000
0000
0000
1000
0000
0000
0000
1000
0000
0000
0200
0320
0000
0030
0000
0000
0000
0000
0000
0002
0003
0000
0000
0000
0000
0000
0000
0200
0300
0000
0000
,
0000
0000
0020
0030
0020
0030
0000
0000
0200
0300
0000
0000
2000
3000
0000
0000
0002
0003
0000
0000
0020
0030
0000
0000
0200
0300
0000
2000
3002
0023
0030
0000
,
0200
0300
0000
0000
2000
3000
0000
0000
0002
0003
0000
0000
0020
0030
0000
0000
0200
0300
0000
0000
2020
3030
0000
0000
0000
0000
0000
0000
0202
0303
0000
0000
,
0000
0000
0000
0000
0000
0000
0000
0000
2000
3000
0000
0000
0200
0300
0000
0000
0020
0030
0000
0000
0002
0003
0000
0000
0020
0030
0000
0000
0200
0300
0000
0000
,
0000
0000
0020
0030
0200
0300
0000
0000
0000
0000
0000
0000
0000
0000
0000
0000
0000
0000
0000
0000
0000
0000
0000
0000
2000
3000
0200
0300
0020
0030
0002
0003
,
2000
3000
0200
0300
0020
0030
0002
0003
2000
3000
0200
0300
0020
0030
0002
0003
0020
0030
0000
0000
2000
0000
0000
0000
0000
0000
0000
0000
0200
0000
0000
0000
,
0000
3300
0002
0023
0230
2300
0000
0000
,
3002
0203
0000
2300
0000
3020
0032
2003
,
0000
0000
0000
0000
3002
0203
0302
0000
0000
2003
3020
0000
0000
0000
0000
0000
,
0000
0000
2030
3020
0032
0023
0000
0000
,
2230
3320
0000
0032
0000
0203
0320
2030
,
0000
0000
0000
0000
0000
0000
3020
0000
0000
0032
0203
0000
0000
0000
0320
0000
,
0000
0032
0023
0230
2300
3020
0000
0000
,
2030
0000
3020
0000
0032
0000
0023
0000
2030
0000
3020
0000
0000
0230
0302
0000
,
2023
0000
0000
0000
0000
3230
0000
2302
,
0000
3000
0023
0230
0000
0320
0000
2030
,
3000
0002
0023
0000
2000
3200
2300
3000
0032
0000
2003
0000
3020
0000
0230
0000
,
0302
0000
0023
0000
0230
0000
2300
0000
3200
0320
0032
0000
0000
0000
0023
0000
,
0000
0000
2030
3200
0000
0302
0000
0000
,
0023
0000
0032
0000
2003
3200
2300
3000
0020
0230
0320
0030
0002
2003
3200
0320
,
0032
0000
2003
0000
3200
0000
0320
0000
0032
0000
0023
0000
0230
0000
2300
0000
3000
0000
0000
0000
0002
0003
0000
0000
0000
0000
0000
0000
0220
0330
0000
0000
,
0000
0000
0000
0000
2000
3000
0000
0000
0200
0300
2000
3000
0200
0300
0000
0000
0000
0000
0000
0000
0220
0330
0000
0000
0000
0000
0000
0000
0200
0300
0000
0000
,
0020
0030
2000
3000
0002
0003
0000
0000
0000
0000
0000
0000
2020
3030
0000
0000
0000
0000
0000
0000
2020
0000
0000
0000
3032
0000
0000
0000
0023
0000
0000
0000
,
0230
0000
0000
0000
2300
0000
0000
0000
3200
0300
0000
0000
0220
0330
0000
0000
0000
0000
0020
0030
0022
0000
0000
0000
0033
0000
0000
0000
0002
0000
0000
0000
,
0000
0023
0230
2300
3200
0320
0032
2003
,
0000
0000
0000
0000
3020
0000
0000
0000
0232
0303
0000
0000
0002
0003
0000
0000
2002
3003
0000
0000
2000
3000
0000
0000
0000
0000
2000
3000
0202
0303
0000
0000
,
0200
0300
0020
0030
2000
3000
0200
0300
0020
0030
0002
0003
0020
0030
0200
0300
2000
3000
0020
0030
0200
0300
0000
0000
0000
0000
0000
0000
0220
0330
0000
0000
,
0000
0000
0000
0000
0020
0030
0000
0000
0200
0300
0020
0030
0200
0300
0000
0000
0000
0000
0000
0000
2020
3030
0000
0000
2000
3000
0000
0000
0020
0030
0000
0000
,
2000
3000
0020
0030
0002
0003
0000
0000
0000
0000
0000
0000
2020
0000
0000
0000
0000
0000
0000
0000
0000
0000
0000
0000
3032
0000
0000
0000
0203
0000
0000
0000
,
0320
2030
0000
0000
0000
3020
0000
2030
,
0000
3200
0320
0032
2003
3020
0230
0320
,
0000
2030
3002
0000
0203
0320
0032
0003
2000
0000
3020
0000
0032
0000
0203
0000
,
0000
0000
0000
0000
0320
0000
0000
0000
0000
0000
0000
0000
0030
0000
0000
0000
0000
0000
0000
0000
2000
3000
0000
0000
0200
0300
0000
0000
0020
0030
0000
0000
,
0002
0003
0000
0000
0020
0030
0000
0000
0200
0300
0000
0000
2000
3000
0000
0000
0020
0030
0000
0000
0002
0003
0000
0000
0200
0300
0000
0000
2000
3000
0000
0000
,
0200
0300
0000
0000
2000
3000
0000
0000
0000
0000
0000
0000
0020
0030
0000
0000
0000
0000
0000
0000
0002
0003
0000
0000
0000
0000
0000
0000
0200
0300
0000
0000
,
0000
0000
0000
0000
0000
0000
0000
0000
0200
0300
0000
0000
0020
0030
0000
0000
0000
0000
0000
0000
0002
0003
0000
0000
0020
0030
0000
0000
0200
0300
0000
0000
,
2000
3000
0000
0000
0200
0300
0000
0000
0020
0030
0000
0000
0002
0003
0000
0000
2000
3000
0000
0000
0200
0300
0000
0000
0020
0030
0000
0000
0002
0003
0000
0000
,
0020
0030
0000
0000
0200
0300
0000
0000
2000
3000
0000
0000
2020
3030
0000
0000
0000
0000
0000
0000
0002
0003
0000
0200
0300
0000
0020
0030
0000
2000
3000
0000
,
2000
3000
0000
0000
0200
0000
0000
0000
0000
0000
0000
0000
0000
0000
0000
0000
0000
0000
0000
0000
0320
0030
0000
0000
0002
0003
0000
0000
0020
0030
0000
0000
,
0000
0000
0000
0000
0020
0030
0000
2000
3000
0000
0020
0030
0000
0200
0300
0000
0000
0020
0030
0000
0000
0000
0000
0000
0000
0000
0000
0000
0000
0000
0000
0000
,
0000
0000
0000
0000
0002
0003
0000
0000
2000
3000
0000
0000
0200
0300
0000
0000
0020
0030
0000
0000
0002
0003
0000
0000
2000
3000
0000
0000
0200
0300
0000
0000
,
0020
0030
0000
0000
0002
0003
0000
0000
2000
3000
0000
0000
0002
0003
0000
0000
0000
0000
2000
3000
0002
0003
0000
0000
0000
0000
0000
0000
0000
0000
0000
0000
,
0000
0000
0000
0000
0000
0000
0000
0000
0000
0000
0000
0000
0000
0000
0000
0000
2002
0000
0000
0000
0000
0000
0000
3003
0000
0000
0000
0000
0000
0000
0000
0000
,
0000
0000
0000
0000
,
0000
0000
0000
0000
;

//---------------dance-single - ----------------
#NOTES:
     dance-single:
     :
     Edit:
     10:
     0.587,0.971,0.175,0.098,0.859,550.000,25.000,14.000,0.000,0.000:
1000
0000
0000
0000
0001
0000
0000
0000
0000
0000
0000
0000
0100
0000
0000
0000
0000
0000
0000
0000
0010
0000
0000
0000
1000
0010
0100
0001
1000
0000
0000
0000
,
0000
1010
0000
0000
0000
1000
0100
1001
,
0000
0000
0001
0010
0100
1000
0000
0000
,
0001
0000
0000
0000
0001
0010
0100
1000
0001
0000
0010
0000
0100
0000
0000
0000
0010
0000
0000
0000
1000
0000
0000
0000
0010
0000
0000
0000
1001
0000
0000
0000
,
1000
0100
0010
0000
0000
0000
0000
0000
0001
0100
0001
0000
1000
0010
1000
0000
,
0000
0000
0001
0100
0010
1000
0100
0010
,
0001
0000
0100
0000
0010
0000
1000
0000
0100
0000
0001
0000
0001
0010
1000
0000
,
0000
1001
0000
0000
0001
1000
0000
0101
,
0000
0000
0000
0000
0000
0000
0000
0000
0001
0000
0000
2000
3020
0000
0000
0000
0000
0000
0000
0000
1030
0000
0000
0000
0000
0000
0000
0000
0001
0000
0000
0000
,
0000
0000
0001
0000
1000
0000
0000
0000
0010
0000
0000
0000
0100
0000
0000
0000
0001
0000
0000
0000
0010
0000
0000
0000
1000
0000
0010
0001
0010
0001
0000
0000
,
1000
0100
0010
0001
0010
1010
0000
0101
,
0000
0000
0001
0100
0010
0001
1000
0010
,
0000
1000
0001
0000
0000
0000
0000
0000
0000
0000
0000
0000
0001
0000
1000
0100
,
0010
0000
0001
0000
0010
0000
0100
0000
1000
0000
0100
0000
0010
0000
0001
0000
0010
0000
0000
0000
1000
0010
0100
0001
1000
0010
0100
0001
2000
0000
0000
0000
,
0000
0000
0000
0000
0000
0000
0000
0000
3002
0000
0003
0000
0001
0010
0100
1000
0001
0010
0100
1000
0002
0000
0000
0000
0000
0000
0000
0000
0000
0000
0000
0000
,
1003
0000
0000
0000
1000
0100
0010
0001
0010
0100
1000
0000
0001
0000
0000
0000
0000
0000
0000
0000
1000
0000
0000
0000
0100
0000
0000
0000
0002
0000
0000
0000
,
0000
0000
0000
0000
0003
0000
0000
0000
0001
0000
1000
0000
0001
0000
0000
0000
0000
0000
1000
0000
0001
0010
0100
1000
0010
0100
0001
0010
0100
1000
0100
0010
,
0001
1000
0100
0010
0001
1000
0100
0010
0001
1000
0100
0010
0001
0100
0010
1000
0001
0100
0010
1000
0002
0000
0000
0000
0003
0000
0000
0000
0000
0000
0000
0000
,
1000
0100
0010
0001
2000
0000
0000
0000
0000
0000
0000
0000
3001
0010
0001
0000
0000
0000
0000
0000
0100
0010
0100
0000
0010
0100
0010
0000
0001
0010
0100
1000
,
0001
0010
0100
1000
0001
0010
0100
1000
0001
0010
0100
1000
0001
0000
0000
0000
0000
0000
1000
0000
0001
0010
0100
1000
0100
0010
0001
1000
0010
0100
0001
1000
,
0010
0100
0001
0010
0100
1000
0100
0010
0001
0010
0100
1000
0001
0010
0100
1000
0001
0010
0100
1000
0001
0010
0100
1000
0001
0010
0100
1000
0100
0010
0001
1000
,
0100
0010
0001
1000
0100
0010
0001
1000
0010
0100
0001
1000
0010
0100
0001
0010
0100
1000
0010
0000
0001
0000
0000
0000
0000
0000
1000
0000
0001
0000
0000
0000
,
1000
0100
0010
0001
1000
0100
0010
0001
0000
0000
0000
0000
0000
0000
0000
0000
0000
0000
0000
0000
0001
0010
0100
1000
0001
0010
0100
1000
0001
0100
0010
1000
,
0001
0100
0010
1000
0001
0010
0100
1000
0001
0010
0100
1000
0010
0100
0001
1000
0010
0100
0001
1000
0010
0100
0001
1000
0010
0100
0001
1000
0020
0000
0000
0000
,
0030
1000
0010
0000
0100
0010
1000
0000
0010
0000
0100
0000
0010
0000
0001
0000
,
1000
0000
0000
0000
0000
0000
0000
0000
0000
0000
0000
0000
0010
0000
0000
0000
0000
0000
0000
0000
0000
0000
0000
0000
0001
0000
0000
0000
0000
0000
0000
0000
0000
0000
0000
0000
1000
0000
0000
0000
0000
0000
0000
0000
0010
0000
0000
0000
0000
0000
0000
0000
0100
0000
0000
0000
0000
0000
0000
0000
0001
0000
0000
0100
0000
0000
0010
0000
0000
1000
0000
0000
0001
0000
0000
0100
0000
0000
0010
0000
0000
1000
0000
0000
0001
0000
0000
0100
0000
0000
0010
0000
0000
1000
0000
0000
,
0001
0100
0010
1000
0001
0100
0010
1000
0001
0100
0010
1000
0001
0010
0100
1000
0100
0010
0001
1000
0100
0010
0001
1000
0100
0010
0001
1000
0100
0010
0001
1000
,
0100
0010
0001
1000
0100
0010
0001
1000
0100
0010
0001
0000
0100
0000
0010
0000
0001
0000
0100
0000
0001
0000
0010
0000
0100
0000
0001
0000
0010
0000
1000
0000
,
0001
0100
0010
0100
0001
1000
0100
0000
0000
0000
1001
0000
0000
0000
0110
0000
,
0000
0000
1000
0000
0001
0100
1001
0000
0000
0000
0010
0000
0000
0000
1000
0000
,
0100
0010
0100
0000
0000
0000
2000
0000
3000
0000
0001
0000
0100
0000
0010
0000
,
1000
0000
1000
0000
0100
0000
0100
0000
0000
0100
0001
0000
0000
0000
1001
0000
,
0000
0000
0001
0100
0010
0100
0001
0010
,
0000
0000
1001
0000
0001
0000
0001
0000
0010
0000
0010
0000
0000
1000
1000
0100
,
0010
0001
0100
0010
1000
0100
0010
0001
0100
0010
1001
0000
0000
0000
0110
0000
,
0000
0000
1000
0000
0001
0100
1000
0000
0000
0000
0101
0000
0010
0000
1000
0000
,
0010
0100
0010
0000
0000
0000
0101
0000
0000
0000
0010
0000
1000
0000
0100
0000
,
0010
0001
0000
1001
0000
0010
0000
0010
,
0000
1000
0010
0001
0100
0010
1000
0010
,
0000
0100
0010
0000
0100
0010
0100
0000
0001
0000
0100
0000
0001
0000
1010
0000
,
0000
0101
0000
0000
0000
1000
0100
1000
,
0100
0010
0100
0010
0001
0010
0001
0010
,
0100
0010
0000
0100
0000
1000
0000
1001
,
0000
0000
0001
0001
0000
1000
0010
0001
,
0100
1000
0010
0001
1000
0100
0010
0001
,
1000
0000
0000
0001
0000
0000
0100
0000
0000
0010
0000
0000
0000
0000
0000
0001
0000
0100
0000
0010
0000
0001
0000
0000
,
2000
0200
3300
0000
0000
0001
0100
0010
,
0000
0000
0000
0001
0000
0100
0000
0010
0000
1000
0000
0000
0002
0000
0000
0200
0000
0000
0303
0000
0000
0000
0000
0000
,
0000
0011
1000
0100
1001
0110
0001
0100
,
1000
0000
0101
0000
0000
0000
1010
0000
0000
0001
0100
0000
0000
0000
0000
0000
,
0000
0000
0000
0000
0000
0000
0000
0000
0000
0000
0000
0000
0000
0000
0000
0000
1000
0100
0010
0001
0000
0000
0000
0000
0000
0000
0000
0000
0000
0000
0000
0000
,
0000
0000
0000
0000
,
0000
0000
0000
0000
;
